#TITLE:Cruel Angel's Thesis (ParaPara Remix);
#SUBTITLE:- Neon Genesis Evangelion Opening;
#ARTIST:石田燿子;
#TITLETRANSLIT:;
#SUBTITLETRANSLIT:;
#ARTISTTRANSLIT:Yoko Ishida;
#CREDIT:Dj DMAxel;
#BANNER:Cruel Angel's Thesis (ParaPara Remix).png;
#BACKGROUND:Cruel Angel's Thesis (ParaPara Remix)-bg.png;
#LYRICSPATH:Cruel Angel's Thesis (ParaPara Remix).lrc;
#CDTITLE:Dj DMA Original Simfile.png;
#MUSIC:Cruel Angel's Thesis (ParaPara Remix).mp3;
#OFFSET:-0.020;
#SAMPLESTART:63.203;
#SAMPLELENGTH:12.000;
#SELECTABLE:YES;
#BPMS:0.000=158.050;
#STOPS:;
#BGCHANGES:;
// cache tags:
#FIRSTBEAT:3.000;
#LASTBEAT:240.000;
#SONGFILENAME:songs/Otaku's Dream 3rd Anime Mix/[Dj DMAxel] Cruel Angel's Thesis (ParaPara Remix) - NGE/Cruel Angel's Thesis (ParaPara Remix).sm;
#HASMUSIC:1;
#HASBANNER:1;
#MUSICLENGTH:91.846;
// end cache tags

//---------------dance-single - ----------------
#NOTES:
     dance-single:
     :
     Easy:
     4:
     0.261,0.359,0.131,0.044,0.000,152.000,12.000,4.000,0.000,0.000:
0000
0000
0000
0000
,
0000
0000
0000
0000
,
0000
0000
0000
0000
,
0000
0000
0000
0000
,
0000
0000
0000
0000
,
0000
0000
0000
0000
,
0000
0000
0000
0000
,
0000
0000
0000
0000
,
0000
0000
0000
0000
,
0000
0000
0000
0001
,
0010
0001
0001
1000
,
1000
0010
0100
1000
,
0100
1000
0010
0200
,
0000
0000
0000
0301
,
0010
0100
0010
0100
,
0100
1000
1000
0010
,
0100
0010
0001
0020
,
0000
0000
0000
0130
,
0000
0001
0000
1000
,
0000
0010
0000
0100
,
0000
0010
0000
0001
,
0000
0001
0000
1000
,
0000
1000
0000
0001
,
0000
0001
0000
0010
,
0000
0010
0000
0100
,
0000
0001
0000
0001
,
0010
0010
0100
0100
,
0001
0001
1000
1000
,
0010
0110
1000
1010
,
0100
0001
0000
1000
,
1000
0001
0000
0010
,
0010
0100
0000
0001
,
0001
0010
0010
0100
,
0110
1000
1100
0001
,
0000
1000
0000
0001
,
0000
0010
0000
0100
,
0000
0100
0000
0010
,
0100
0010
0100
0010
,
0000
0001
0000
1000
,
0000
0001
0000
0010
,
0000
0001
0000
2000
,
0000
0000
0000
3001
,
0010
0101
0010
0100
,
0010
0001
0010
1001
,
0010
0100
0010
0100
,
0010
0100
0010
0011
,
0100
1000
0010
0100
,
0010
0100
0001
0101
,
1000
0010
1000
0101
,
0010
0001
0010
0110
,
1000
0010
0100
0010
,
0001
0100
1000
0010
,
0100
0010
0100
0101
,
1000
0010
0100
0010
,
0000
0000
0000
0001
,
0000
0000
0000
1000
,
0000
0000
0000
0100
,
0010
0100
0010
0101
,
0001
0001
1000
1000
,
0010
0100
0100
0020
,
0030
0000
0000
0000
;

//---------------dance-single - ----------------
#NOTES:
     dance-single:
     :
     Hard:
     8:
     0.512,0.555,0.174,0.109,0.005,303.000,16.000,10.000,0.000,0.000:
0000
0000
0000
0002
,
0000
0000
0000
2003
,
0000
0000
0000
3020
,
0000
0000
0000
0230
,
0000
0000
0000
0302
,
0000
0000
0000
2003
,
0000
0000
0000
3020
,
0000
0000
0000
0230
,
0000
0000
0000
0302
,
0000
0000
0000
0000
0000
0000
1003
0100
,
0010
0100
0010
0100
1000
0000
1000
0010
,
1000
0010
0100
0010
0001
0000
0001
0010
,
1000
1000
0010
0001
0100
0000
1000
0001
,
0100
1000
0010
1000
0010
0100
0010
0000
,
0001
0010
1000
0010
0001
1000
0010
0100
,
0010
0001
0010
0001
0100
0001
0100
0010
,
0100
0001
0100
0001
0010
1000
0010
1000
,
0010
0100
0001
0100
0010
0100
0001
0000
,
0001
1000
0010
0100
,
0010
0001
0100
1000
,
0010
1000
0010
1000
,
1000
0001
0100
0101
,
0010
0100
0100
0010
,
0001
0001
1000
0010
,
0100
0010
0001
0010
,
1000
0110
0001
0011
,
1000
0010
0100
0110
,
1000
0010
0100
0101
,
1000
0010
1000
0010
,
0100
0010
0001
1000
,
1000
0001
0001
0011
,
0100
0010
1000
1010
,
0100
0010
0100
1001
,
0110
0000
0101
0000
1010
0000
0100
0001
,
0100
0000
1000
0010
1000
0000
1000
0100
,
0001
0000
0100
1000
0100
0001
0100
1000
,
0010
1000
0010
0100
0010
0001
0100
0000
,
1100
0000
0101
0000
0110
0000
1000
0001
,
0100
0000
0100
1000
0010
0000
1000
0100
,
0001
0100
1000
0000
1000
0000
0100
0010
,
1000
0000
0000
0000
0001
0000
0100
0000
1000
0000
0000
0000
0010
0000
0000
0110
,
0000
0101
0000
0000
0000
0000
0001
0100
,
1000
0000
1000
0010
1000
0010
0100
0010
,
1000
0100
1000
0010
1000
0000
1000
0100
,
0001
0000
0001
0100
1000
0001
0010
0001
,
0010
0001
0100
0010
0100
0000
0100
0010
,
0100
0000
1000
0100
0001
0100
1000
0010
,
1000
0010
0100
1000
0001
0000
0100
0100
,
0001
0000
0001
1000
0001
0100
1000
0100
,
0001
0010
1000
0010
0001
0000
0001
1000
,
0001
0000
1000
0010
1000
0000
0001
0100
,
1000
0100
0001
0100
1000
0000
0010
1000
,
0010
0000
0100
0010
0100
0000
0001
0100
,
1000
0100
0001
0100
1000
0000
0001
1000
,
0001
0000
1000
0010
0100
0010
1000
0100
,
1000
0010
1000
0010
0100
0000
1000
0001
,
1000
0000
1000
0010
0100
1000
0010
1000
,
0100
1000
0100
0001
0100
1000
0010
1000
,
0010
0000
0100
0010
0100
0000
0010
0001
,
0010
0000
0001
0000
0100
0001
2000
0000
,
3000
0000
0000
0000
;

//---------------dance-single - ----------------
#NOTES:
     dance-single:
     :
     Challenge:
     9:
     0.603,0.686,0.207,0.142,0.163,356.000,19.000,13.000,0.000,0.000:
0000
0000
0000
0020
,
0000
0000
0000
0230
,
0000
0000
0000
2300
,
0000
0000
0000
3002
,
0000
0000
0000
0023
,
0000
0000
0000
0230
,
0000
0000
0000
2300
,
0000
0000
0000
3002
,
0000
0000
0000
0023
,
0000
0000
0000
0000
0000
0000
0130
0010
,
0100
0010
0000
0100
0010
0000
0100
0000
0010
0000
0000
0000
0100
0000
1000
0000
,
1000
0100
0000
1000
0100
0000
1000
0000
0010
0000
0000
0000
0010
0000
0100
0000
,
0001
0000
0100
0000
0010
0000
0100
0000
0001
0000
0000
0000
0100
0010
0100
0000
,
0010
0001
0010
0000
0010
0100
0010
0000
0100
0010
0100
0000
1000
0000
0000
0000
,
0010
1000
0001
0100
1000
0100
1000
0001
,
1000
0010
0000
0010
1000
0000
0010
0000
0100
0000
0010
0000
0100
0000
0010
0000
,
0100
0000
0001
0000
0010
0000
0001
0000
0100
0000
0001
0000
0010
0001
0010
0000
,
0001
0010
0001
0000
0010
0001
0010
0000
0100
0000
1000
0000
0010
0000
0000
0000
,
0010
0001
0100
0000
1000
0000
0001
0010
,
1000
0000
0110
0000
0001
0000
0100
1000
,
0100
0000
0100
0010
0100
0000
0100
0000
,
0100
0000
0010
0000
0100
0000
0000
0000
0001
0000
0000
0000
0001
0010
0000
0000
,
1000
0000
0000
0000
0001
0000
0000
0000
0001
0000
0000
0000
1000
0100
0000
0000
,
0010
0000
0010
0000
0100
1000
1000
0000
,
0001
0010
1000
0000
0010
0000
1000
0010
,
1000
0100
1001
0000
0010
0000
1010
0000
,
0100
0001
1000
0000
0001
0000
0001
1000
,
0100
0000
1000
0000
0001
0000
0010
0001
,
0100
0000
1000
0010
0100
0000
1000
0100
,
0010
0100
0010
0000
0010
0000
0100
1000
,
0100
0000
0010
0000
0010
0000
0010
1000
,
0001
0000
1001
0000
0100
0000
0100
1000
,
0001
1000
0001
0110
,
1001
0000
0011
0000
1100
0000
0001
0010
,
0001
0000
0100
1000
0100
0000
0100
0001
,
0010
0100
0001
0100
0001
0010
0001
0100
,
1000
0100
1000
0001
1000
0010
0001
0010
,
0001
0010
0001
0100
1001
0000
0100
0010
,
0001
0000
0001
0100
1000
0000
0100
0001
,
0010
0001
0100
0000
0110
0000
0001
1000
,
0100
0000
0000
0000
0010
0000
0001
0000
0100
0000
0000
0000
1001
0000
0000
1001
,
0000
0000
0011
0000
1000
0001
1000
0001
1000
0001
1000
0000
0010
0000
0001
0000
,
0100
0010
0100
1000
0100
1000
0001
1000
,
0010
0000
0001
0000
0100
1000
0100
0000
0100
0000
0000
0000
0100
0000
0001
0000
,
0010
0000
0010
0001
0010
0001
0100
0001
,
0100
0000
0001
0000
0100
0010
0100
0000
0100
0000
0000
0000
0001
0000
1000
0000
,
0001
0000
0100
0001
0010
0001
0100
1000
,
0100
0000
1000
0000
0001
0100
0001
0000
0001
0000
0000
0000
0002
0000
0010
0000
,
0013
0000
0200
0010
0310
0001
0100
0001
,
1000
0001
1000
0001
0011
0000
0010
0100
,
0010
0000
0100
1000
0100
0000
0010
0001
,
0100
0000
0001
0000
0010
0001
0010
0000
0100
0000
0000
0000
1000
0000
0100
0000
,
1000
0000
0001
1000
0001
0000
0010
0001
,
0100
0000
0001
0000
0010
0000
0001
0000
0100
0000
0000
0000
0100
0001
0100
0000
,
0010
0000
0000
0000
0100
0000
1000
0000
0001
0000
1000
0000
0001
1000
0001
0000
,
0100
0000
1000
0000
0100
0000
1000
0000
0001
0000
0000
0000
0100
0001
0100
0000
,
0100
0000
0000
0000
0100
0000
1000
0000
0001
0000
0100
0000
1000
0001
1000
0000
,
0001
1000
0001
0000
0001
1000
0001
0000
0001
0010
0001
0000
0010
0000
1000
0000
,
1010
0000
0001
0100
0101
0000
1001
0001
,
1000
0000
0110
0000
0001
0010
2200
0000
,
3300
0000
0000
0000
;

//---------------dance-single - ----------------
#NOTES:
     dance-single:
     :
     Medium:
     6:
     0.358,0.425,0.185,0.044,0.000,209.000,17.000,4.000,0.000,0.000:
0000
0000
0000
0001
,
0000
0000
0000
0010
,
0000
0000
0000
0100
,
0000
0000
0000
0001
,
0000
0000
0000
0010
,
0000
0000
0000
1000
,
0000
0000
0000
0100
,
0000
0000
0000
0020
,
0000
0000
0000
0230
,
0000
0000
0300
1000
,
0010
0001
1000
1000
,
1000
0100
0001
0001
,
0100
0010
0100
1000
,
0100
0010
0010
0010
,
0001
0100
0010
0010
,
0010
0100
1000
0100
,
0010
0001
0010
0001
,
1000
0001
1000
0001
,
0001
1000
0010
0100
,
0010
0001
0100
1000
,
0010
1000
0010
1000
,
1000
0001
0100
0101
,
0010
0100
0100
0010
,
0001
0001
1000
0010
,
0100
0010
0001
0010
,
1000
0110
0001
0011
,
1000
0010
0100
0110
,
1000
0010
0100
0101
,
1000
0010
1000
0010
,
0100
0010
0001
1000
,
1000
0001
0001
0011
,
0100
0010
1000
1010
,
0100
0010
0100
1001
,
0110
0101
1010
0100
,
0100
1000
1000
1000
,
0001
0100
0100
0100
,
0010
0010
0010
0100
,
1100
0101
0110
1000
,
0100
0100
0010
1000
,
0001
1000
1000
0100
,
1000
0001
1000
0010
,
0110
0101
0000
0001
,
1000
1000
1000
0100
,
0001
1000
1000
1000
,
0001
0001
1000
0010
,
0100
1000
1000
0100
,
0100
1000
0001
1000
,
1000
0100
0001
0100
,
0001
0100
0001
1000
,
0010
1000
0001
0001
,
0001
1000
1000
0001
,
1000
0001
1000
0010
,
0010
0100
0100
0001
,
1000
0001
1000
0001
,
0001
1000
0100
0001
,
1000
1000
0100
1000
,
1000
1000
0100
0010
,
0100
0100
0100
0010
,
0010
0100
0100
0010
,
0010
0001
0100
2002
,
3003
0000
0000
0000
;
